`·.¸¸.·¯`··._.·: tamer lovers !`·.¸¸.·¯`··._.·:!

`·.¸¸.·¯`··._.·: tamer lovers !`·.¸¸.·¯`··._.·:!


 
الرئيسيةالصفحة الرئيسيةاليوميةمكتبة الصورس .و .جبحـثقائمة الاعضاءالتسجيلدخول

شاطر | 
 

 حصريا فيلم Surfer Dude DVDRiP XViD

استعرض الموضوع السابق استعرض الموضوع التالي اذهب الى الأسفل 
كاتب الموضوعرسالة
Legand Of Love
Admin ASLY
Admin ASLY


ذكر السرطان الحصان
عدد المساهمات : 239
تاريخ الميلاد : 17/07/1990
تاريخ التسجيل : 09/04/2009
العمر : 26
الموقع : http://not4uo.co.cc
العمل/الترفيه : طالب جامعي
المزاج : رايق
!!!! AdM!N !!!!

مُساهمةموضوع: حصريا فيلم Surfer Dude DVDRiP XViD   الإثنين مايو 04, 2009 5:37 am


Info:
http://www.imdb.com/title/tt0976247/

Surfer Dude DVDRiP XViD SB0
——————————————————————————-

——————————————————————————-
Type……………..: Movie
General Information

Movie Information….: http://www.imdb.com/title/tt0976247/
——————————————————————————-

——————————————————————————-
Posted by…………: SB0
Post Information

——————————————————————————-

——————————————————————————-
General
Complete name : Sufer Dude DVDRiP XViD SB0.avi
Format : AVI
Format/Info : Audio Video Interleave
File size : 700 MiB
Duration : 1h 25mn
Overall bit rate : 1 144 Kbps
Writing application : VirtualDubMod 1.5.4.1 (build 2178/release)
Writing library : VirtualDubMod build 2178/release
Release Notes

Video
Format : MPEG-4 Visual
Format profile : Streaming Video@L1
Format settings, BVOP : Yes
Format settings, QPel : No
Format settings, GMC : No warppoints
Format settings, Matrix : Custom
Codec ID : XVID
Codec ID/Hint : XviD
Duration : 1h 25mn
Bit rate : 1 029 Kbps
Width : 544 pixels
Height : 304 pixels
Display aspect ratio : 16/9
Frame rate : 25.000 fps
Resolution : 24 bits
Colorimetry : 4:2:0
Scan type : Progressive
Bits/(Pixel*Frame) : 0.249
Stream size : 629 MiB (90%)
Writing library : XviD 1.1.2 (UTC 2006-11-01)

Audio
Format : MPEG Audio
Format version : Version 1
Format profile : Layer 3
Codec ID : 55
Codec ID/Hint : MP3
Duration : 1h 25mn
Bit rate mode : Variable
Bit rate : 103 Kbps
Nominal bit rate : 112 Kbps
Channel(s) : 2 channels
Sampling rate : 44.1 KHz
Resolution : 16 bits
Stream size : 63.2 MiB (9%)
Alignment : Aligned on interleaves
Interleave, duration : 26 ms (0.65 video frame)
Interleave, preload duration : 524 ms
Writing library : LAME3.97
Encoding settings : -m j -V 4 -q 2 -lowpass 15.6 –abr 112

Steve Addington is the world’s preeminent surfer - cool, laid back, stoned,
shirtless and barefoot, living off endorsements for surfboards and trunks, paid
in cash. In Malibu his endorsement contract has been bought by Eddie Zarno, a
surfer turned businessman who wants Steve to record his moves for an electronic
virtual reality game. Steve just wants to surf. While Zarno tries to change
Steve’s mind, the Pacific goes calm - there are no waves for days on end.
Steve’s attracted to Danni, recently fired by Zarno, but the lack of surfing
drains him. Plus, he’s low on dough

Screens…



Cast
(Credited cast)

Matthew McConaughey … Steve Addington
Alexie Gilmore … Danni Martin
Jeffrey Nordling … Eddie Zarno
Sarah Wright … Stacey (as Sarah Mason)

Zachary Knighton … Brillo Murphy
Cassandra Hepburn … Luanne
Todd Stashwick … Vic
Nathan Phillips … Baker Smith

Ramon Rodriguez … Lupe La Rosa
Travis Fimmel … Jonny Doran

K.D. Aubert … April May
Brooke Allison … Reporter
Nancy Fish … Margaret
Download:
http://hotfile.com/dl/1052489/58cea5...part1.rar.html
http://hotfile.com/dl/1052550/cd1643...part2.rar.html
http://hotfile.com/dl/1052627/d2fe4b...part3.rar.html
http://hotfile.com/dl/1052688/7c52e3...part4.rar.html
http://hotfile.com/dl/1052790/c2050e...part5.rar.html
http://hotfile.com/dl/1052860/35844c...part6.rar.html
http://hotfile.com/dl/1052923/348626...part7.rar.html

or
http://netload.in/dateiFSyLLfrbAH/Su....part1.rar.htm
http://netload.in/dateilt6rZzczQK/Su....part2.rar.htm
http://netload.in/dateiLUXDISk663/Su....part3.rar.htm
http://netload.in/dateix6QcY7V103/Su....part4.rar.htm
http://netload.in/datei2ikcFfMbtD/Su....part5.rar.htm
http://netload.in/dateiVo8DMG0deK/Su....part6.rar.htm
http://netload.in/datei20ec3e8jm6/Su....part7.rar.htm

or
http://rapidshare.com/files/22817604....SB0.part1.rar
http://rapidshare.com/files/22817627....SB0.part2.rar
http://rapidshare.com/files/22817604....SB0.part3.rar
http://rapidshare.com/files/22817633....SB0.part4.rar
http://rapidshare.com/files/22817585....SB0.part5.rar
http://rapidshare.com/files/22817633....SB0.part6.rar
http://rapidshare.com/files/22817594....SB0.part7.rar
الرجوع الى أعلى الصفحة اذهب الى الأسفل
http://not4uo.co.cc
 
حصريا فيلم Surfer Dude DVDRiP XViD
استعرض الموضوع السابق استعرض الموضوع التالي الرجوع الى أعلى الصفحة 
صفحة 1 من اصل 1
 مواضيع مماثلة
-
» WWE Smackdown 2010.03.26 XviD AVI 717 MB , RMVB 270 MB
» Exclusive WWE.Hell.in.a.Cell 2010 XVID 1.33GB Rmvb 480MB
» WWE.Raw.Draft.24.06.08 xvid 1.1 GB Rmvb 400 MB
» ترجمة فيلم Bangkok Dangerous R5 LINE XviD-COALiTiON
» اكبر مكتبة أفلام أجنبية تورنت DVDRIP في الشرق الأوسط متجددة

صلاحيات هذا المنتدى:لاتستطيع الرد على المواضيع في هذا المنتدى
`·.¸¸.·¯`··._.·: tamer lovers !`·.¸¸.·¯`··._.·:! :: افلام :: قسم الافلام الاجنبية-
انتقل الى: